The Shape of Water 2017 720p DVDScr x264 [Moviezworldz]

  • Category Movies
  • Type DVD
  • Language English
  • Total size 1.2 GB
  • Uploaded By moviezworldz
  • Downloads 3175
  • Last checked 1 week ago
  • Date uploaded 1 week ago
  • Seeders 138
  • Leechers 30

The Shape of Water

DramaFantasyRomance

An other-worldly story, set against the backdrop of Cold War era America circa 1962, where a mute janitor working at a lab falls in love with an amphibious man being held captive there and devises a plan to help him escape.

Infohash : C8F3A62918CB356D65DDFEC787D7B6D7EE90F5C1




General
Format : Matroska
Format version : Version 4 / Version 2
File size : 1.22 GiB
Duration : 2 h 2 min
Overall bit rate : 1 416 kb/s

Video
ID : 1
Format : AVC
Format/Info : Advanced Video Codec
Format profile : [email protected]
Format settings : CABAC / 4 Ref Frames
Format settings, CABAC : Yes
Format settings, ReFrames : 4 frames
Codec ID : V_MPEG4/ISO/AVC
Duration : 2 h 2 min
Bit rate : 1 300 kb/s
Width : 1 280 pixels
Height : 684 pixels
Display aspect ratio : 1.85:1
Frame rate mode : Constant
Frame rate : 30.000 FPS
Color space : YUV
Chroma subsampling : 4:2:0
Bit depth : 8 bits
Scan type : Progressive
Bits/(Pixel*Frame) : 0.049
Stream size : 1.10 GiB (91%)
Writing library : x264 core 148 r2708 86b7198
Default : Yes
Forced : No

Audio
ID : 2
Format : AAC
Format/Info : Advanced Audio Codec
Format profile : LC
Codec ID : A_AAC-2
Duration : 2 h 2 min
Bit rate : 128 kb/s
Channel(s) : 2 channels
Channel positions : Front: L R
Sampling rate : 44.1 kHz
Frame rate : 43.066 FPS (1024 SPF)
Compression mode : Lossy
Stream size : 113 MiB (9%)
Language : English
Default : Yes
Forced : No














Files:

The Shape of Water 2017 720p DVDScr x264
  • The Shape of Water 2017 720p DVDScr x264.mkv (1.2 GB)

Comments

Code:

  • udp://tracker.coppersurfer.tk:6969/announce
  • udp://tracker.cyberia.is:6969/announce
  • udp://inferno.demonoid.pw:3391/announce
  • udp://open.stealth.si:80/announce
  • udp://tracker.pirateparty.gr:6969/announce
  • udp://peerfect.org:6969/announce
  • udp://p4p.arenabg.com:1337/announce
  • udp://p4p.arenabg.ch:1337/announce
  • udp://tracker.leechers-paradise.org:6969/announce
  • udp://ipv4.tracker.harry.lu:80/announce
  • udp://shadowshq.yi.org:6969/announce
  • udp://tracker.vanitycore.co:6969/announce
  • udp://tracker.opentrackr.org:1337/announce
  • udp://explodie.org:6969/announce
  • udp://tracker.zer0day.to:1337/announce
  • udp://tracker.leechers-paradise.org:6969/announce
  • udp://coppersurfer.tk:6969/announce